View Single Post
Unread Mar 4th, 2006, 08:41 PM   #245 (permalink)
nrage007
Junior Addict
 
Join Date: Jan 2006
Location: USA
Posts: 31
Default

AWESOME!

If you want to know what track we are on, use the cue sheet and the tracklist. I started from the middle so its hard for me to apply it...but if utuned in from the beginning you should get it right.



Name: Night Addix 2
Style: Trance/Hard Trance

CUE SHEET [http://www.djkristoff.com]
Mix Title: Night Addix 2

FILE "C:\KRISTOFF-_-NIGHT ADDIX 2.mp3" MP3
TRACK 01 AUDIO
INDEX 01 00:00:00
TRACK 02 AUDIO
INDEX 01 6:20:08
TRACK 03 AUDIO
INDEX 01 13:40:17
TRACK 04 AUDIO
INDEX 01 20:01:04
TRACK 05 AUDIO
INDEX 01 26:41:42
TRACK 06 AUDIO
INDEX 01 33:11:41
TRACK 07 AUDIO
INDEX 01 38:34:62
TRACK 08 AUDIO
INDEX 01 44:23:17
TRACK 09 AUDIO
INDEX 01 51:41:15
TRACK 10 AUDIO
INDEX 01 56:32:68
TRACK 11 AUDIO
INDEX 01 62:14:40
TRACK 12 AUDIO
INDEX 01 67:29:69



Tracklisting:

01 - White Label - N.R.C - Fragile (dub mix)
02 - White Label - Iio - Smooth (Airbase remix)
03 - Timeok - Seven Floating Ways (Octagen Remix)
04 - Yahel - Avalance
05 - Witness of Wonder - Emotion in Motion (Original Mix)
06 - White Label - Cloud Nine - Transmission (G&M Project Remix)
07 - White Label - Marcos - Unknown
08 - Ferry Corsten - Right of Way
09 - Kristoff - Project XL9
10 - Verzus - Horizon (Extended Remix)
11 - Ceylon - Immortal (Alphazone Remix)
12 - XLR Project - The Space Program


(thanks kellen)

nrage007 is offline   Reply With Quote