Digitally Imported Homepage

Go Back   Digitally Imported Forums > DI Live Playlist Comments > Funky House Channel
Register FAQ Members List Calendar Search Today's Posts Mark Forums Read

View Poll Results: Olivier Desmet May 2008 Mix - visit www.aptentertainment.com for bookings - How do you rate this tra
simply amazing! 2 50.00%
very good 2 50.00%
decent 0 0%
pretty bad 0 0%
no thanks, not my style! 0 0%
Voters: 4. You may not vote on this poll

Reply
LinkBack Thread Tools Display Modes
Unread Jun 17th, 2009, 04:24 AM   #1 (permalink)
DI Playlist Bot
 
Join Date: Jul 2001
Location: www.di.fm
Posts: 24,328
Arrow Olivier Desmet May 2008 Mix - visit www.aptentertainment.com for bookings

Please post your comments here...

Playlist Page is offline   Reply With Quote
Unread Sep 25th, 2009, 01:49 AM   #2 (permalink)
Qualified Forum Addict
 
Join Date: Aug 2009
Location: bangladesh
Posts: 142
Send a message via Yahoo to playedbyall
Default

oh yeah...... .definitely quality..........
playedbyall is offline   Reply With Quote
Unread Sep 25th, 2009, 01:54 AM   #3 (permalink)
Qualified Forum Addict
 
Join Date: Aug 2009
Location: bangladesh
Posts: 142
Send a message via Yahoo to playedbyall
Default

anyone has the playlist for this mix ??? cheers
playedbyall is offline   Reply With Quote
Unread Sep 25th, 2009, 06:13 AM   #4 (permalink)
DI Channel Director
Channel Manager
 
Join Date: Jul 2007
Location: usa
Posts: 134
Default

try Olivier Desmet's website.

www.olivierdesmet.com

good luck.
dkwatts is offline   Reply With Quote
Unread Jun 25th, 2010, 02:33 PM   #5 (permalink)
Addict in Training
 
Join Date: Oct 2009
Location: USA
Posts: 4
Default

PROPER! Thank Dog I have the office to myself because this is BUMPIN' through my speakers!

I have a few of your tracks & some from OFS & they ALWAYS make asses shake! Keep it up!

Cheers!
DJ Clark-C is offline   Reply With Quote
Unread Apr 25th, 2012, 05:21 PM   #6 (permalink)
Junior Addict
 
Join Date: Aug 2009
Location: N/A
Posts: 62
Default

Code:
REM GENRE Funky House
REM DATE 2008
PERFORMER "Olivier Desmet"
TITLE "May 2008 Mix"
FILE "od_may_2008.mp3" MP3
  TRACK 01 AUDIO
    PERFORMER ""
    TITLE "Unknown"
    INDEX 01 00:00:00
  TRACK 02 AUDIO
    PERFORMER "Jay West"
    TITLE "Easy Come"
    INDEX 01 04:54:05
  TRACK 03 AUDIO
    PERFORMER "Alexander East"
    TITLE "Believe En Me (Lcg Believe En West Remix)"
    INDEX 01 10:32:94
  TRACK 04 AUDIO
    PERFORMER "Danny White"
    TITLE "She Likes It"
    INDEX 01 14:54:82
  TRACK 05 AUDIO
    PERFORMER ""
    TITLE "Unknown"
    INDEX 01 19:32:10
  TRACK 06 AUDIO
    PERFORMER "Stank Dubz"
    TITLE "Tina's Groove"
    INDEX 01 24:55:59
  TRACK 07 AUDIO
    PERFORMER ""
    TITLE "Unknown"
    INDEX 01 31:20:70
  TRACK 08 AUDIO
    PERFORMER ""
    TITLE "Unknown"
    INDEX 01 35:27:18
  TRACK 09 AUDIO
    PERFORMER "Son of Raw"
    TITLE "A Black Man In Space"
    INDEX 01 40:42:92
  TRACK 10 AUDIO
    PERFORMER "JT Donaldson & Fred Everything"
    TITLE "Here Comes the Beats"
    INDEX 01 45:04:81
  TRACK 11 AUDIO
    PERFORMER "Jimpster"
    TITLE "Dangly Panther (Original Mix)"
    INDEX 01 50:12:90
  TRACK 12 AUDIO
    PERFORMER ""
    TITLE "Unknown"
    INDEX 01 55:59:50
  TRACK 13 AUDIO
    PERFORMER "Mood II Swing feat. Carol Sylvan"
    TITLE "Closer (Fred Everything & Olivier Desmet Mix)"
    INDEX 01 61:53:80
5 tracks to go...
fakeaccount is offline   Reply With Quote
Unread Apr 27th, 2012, 10:25 AM   #7 (permalink)
Junior Addict
 
Join Date: Aug 2009
Location: N/A
Posts: 62
Default

Code:
REM GENRE Funky House
REM DATE 2008
PERFORMER "Olivier Desmet"
TITLE "May 2008 Mix"
FILE "od_may_2008.mp3" MP3
  TRACK 01 AUDIO
    PERFORMER "Inland Knights"
    TITLE "Can't Wait"
    INDEX 01 00:00:00
  TRACK 02 AUDIO
    PERFORMER "Jay West"
    TITLE "Easy Come"
    INDEX 01 04:54:05
  TRACK 03 AUDIO
    PERFORMER "Alexander East"
    TITLE "Believe En Me (Lcg Believe En West Remix)"
    INDEX 01 10:32:94
  TRACK 04 AUDIO
    PERFORMER "Danny White"
    TITLE "She Likes It"
    INDEX 01 14:54:82
  TRACK 05 AUDIO
    PERFORMER ""
    TITLE "Unknown"
    INDEX 01 19:32:10
  TRACK 06 AUDIO
    PERFORMER "Stank Dubz"
    TITLE "Tina's Groove"
    INDEX 01 24:55:59
  TRACK 07 AUDIO
    PERFORMER "Brett Jackson & Orion"
    TITLE "A House is a Home (Toka Project Mix)"
    INDEX 01 31:20:70
  TRACK 08 AUDIO
    PERFORMER ""
    TITLE "Unknown"
    INDEX 01 35:27:18
  TRACK 09 AUDIO
    PERFORMER "Son of Raw"
    TITLE "A Black Man In Space"
    INDEX 01 40:42:92
  TRACK 10 AUDIO
    PERFORMER "JT Donaldson & Fred Everything"
    TITLE "Here Comes the Beats"
    INDEX 01 45:04:81
  TRACK 11 AUDIO
    PERFORMER "Jimpster"
    TITLE "Dangly Panther (Original Mix)"
    INDEX 01 50:12:90
  TRACK 12 AUDIO
    PERFORMER ""
    TITLE "Unknown"
    INDEX 01 55:59:50
  TRACK 13 AUDIO
    PERFORMER "Mood II Swing feat. Carol Sylvan"
    TITLE "Closer (Fred Everything & Olivier Desmet Mix)"
    INDEX 01 61:53:80
3 tracks to go...
fakeaccount is offline   Reply With Quote
Reply



Thread Tools
Display Modes

Posting Rules
You may not post new threads
You may not post replies
You may not post attachments
You may not edit your posts

vB code is On
Smilies are On
[IMG] code is Off
HTML code is Off
Trackbacks are On
Pingbacks are On
Refbacks are On


All times are GMT -5. The time now is 04:10 AM.


Powered by vBulletin® Version 3.6.8
Copyright ©2000 - 2014, Jelsoft Enterprises Ltd.
Search Engine Optimization by vBSEO 3.2.0
Copyright © 2010 Digitally Imported, Inc.